12 Strong 2018 720p WEBRip x264 AAC LLG torrent download

seeders: 563
leechers: 210
updated:
Added ago by LifeLongg ***** in Movies
Torrent Downloaded 10 times.
Info Hash: 5865E47193ABA3F00269F7C1BF07B5573D4FCBAF


Torrent Files

12 Strong 2018 720p WEBRip x264 AAC LLG (Size: 937.3 MB)
  12 Strong 2018 720p WEBRip x264 AAC LLG 937.3 MB

Torrent Description







******************************Thumbnail:**********************



******************************Screenshots:********************

Screenshot 1

Screenshot 2

Screenshot 3

Screenshot 4

Screenshot 5

Screenshot 6

Screenshot 7

Screenshot 8

Screenshot 9

Screenshot 0

**************************************************************

Complete name : 12.Strong.2018.720p.WEBRip.x264.AAC.LLG.mp4
Format : MPEG-4
Format profile : Base Media
Codec ID : isom (isom/iso2/avc1/mp41)
File size : 930 MiB
Duration : 2 h 9 min
Overall bit rate : 1 001 kb/s
Writing application : Lavf57.56.101

Video
ID : 1
Format : AVC
Format/Info : Advanced Video Codec
Format profile : [email protected]
Format settings : CABAC / 4 Ref Frames
Format settings, CABAC : Yes
Format settings, RefFrames : 4 frames
Codec ID : avc1
Codec ID/Info : Advanced Video Coding
Duration : 2 h 9 min
Bit rate : 900 kb/s
Width : 1 280 pixels
Height : 534 pixels
Display aspect ratio : 2.40:1
Original display aspect ratio : 2.40:1
Frame rate mode : Constant
Frame rate : 23.976 (23976/1000) FPS
Color space : YUV
Chroma subsampling : 4:2:0
Bit depth : 8 bits
Scan type : Progressive
Bits/(Pixel*Frame) : 0.055
Stream size : 804 MiB (87%)

Audio
ID : 2
Format : AAC
Format/Info : Advanced Audio Codec
Format profile : LC
Codec ID : mp4a-40-2
Duration : 2 h 9 min
Duration_LastFrame : -16 ms
Bit rate mode : Constant
Bit rate : 129 kb/s
Channel(s) : 2 channels
Channel positions : Front: L R
Sampling rate : 48.0 kHz
Frame rate : 46.875 FPS (1024 SPF)
Compression mode : Lossy
Stream size : 120 MiB (13%)
Default : Yes
Alternate group : 1



Related Torrents

torrent name size age seed leech
1.4 GB 3 minutes 753 230
1.4 GB 3 minutes 318 473
739.4 MB 3 minutes 96 135
458.2 MB 4 minutes 585 83
1.4 GB 4 minutes 542 388

Sharing Widget


Download torrent
937.3 MB
seeders:1214
leechers:386
12 Strong 2018 720p WEBRip x264 AAC LLG



To share this torrent use the code below and insert it into comments, status messages, forum posts or your signature.

Torrent: 12 Strong 2018 720p WEBRip x264 AAC LLG

Comments

Latest Searches